#TITLE:Tetris;
#SUBTITLE:-Trance Mix-;
#ARTIST:2pM;
#TITLETRANSLIT:;
#SUBTITLETRANSLIT:;
#ARTISTTRANSLIT:;
#CREDIT:;
#BANNER:Tetris banner.png;
#BACKGROUND:Tetris BG.jpg;
#LYRICSPATH:;
#CDTITLE:;
#MUSIC:2pm_-_tetris-sms.mp3;
#OFFSET:-7.040;
#SAMPLESTART:20.379;
#SAMPLELENGTH:13.340;
#SELECTABLE:YES;
#BPMS:0.000=140.000,62.000=280.000,386.000=140.000,466.000=280.000,709.000=280.001;
#STOPS:;
#BGCHANGES:;
// cache tags:
#FIRSTBEAT:0.000;
#LASTBEAT:658.000;
#SONGFILENAME:Songs/Music V.I.P ^_^/Tetris Trance/tetris.sm;
#HASMUSIC:1;
#HASBANNER:1;
#MUSICLENGTH:182.368;
// end cache tags

//---------------dance-single - Untitled----------------
#NOTES:
     dance-single:
     Untitled:
     Medium:
     7:
     0.557,0.767,0.576,0.165,0.011,576.000,105.000,30.000,0.000,0.000:







1000
0000
0010
0100
0100
0000
0001
1000
,
0100
0000
0001
1000
0010
0000
0001
1000
,
0100
0000
0001
1000
0010
0000
0001
0000
,
1000
0101
1200
0310
,
0000
0010
0000
1000
0100
0000
0001
0100
,
1000
0000
0000
0100
0010
0000
0001
0010
,
1000
0000
0100
0010
0001
0000
1000
0000
,
0001
2100
3100
0000
,
1001
0000
0001
1000
0001
0000
1000
0001
,
0100
0000
0001
0100
0010
0000
0010
1000
,
0010
0000
1000
0010
1000
0000
0010
0000
,
0110
0011
1010
0001
,
0000
1001
0000
0010
1010
0000
0010
0100
,
0110
0000
0000
0100
0110
0000
0001
1000
,
0101
0000
1000
0001
0101
0000
1001
0000
,
1100
0000
0101
0000
0220
0000
0000
0330
,
0000
0000
1001
0000
,
0100
1000
0100
0010
,
0001
1000
0200
0300
,
0000
0001
0010
0100
,
0010
0001
2000
3000
,
1000
0100
0010
0010
,
0001
0000
1000
0000
,
1100
0000
0101
0000
,
0100
0020
0030
1000
,
0000
0000
0001
0000
1000
0000
0000
0100
,
1000
0001
2002
3003
,
0000
0100
0001
1000
,
0100
0010
0002
0003
,
1000
0100
0010
0000
,
0002
0003
2000
3000
,
0220
0330
2002
3003
,
2100
3000
0001
0000
,
1000
0100
1000
0100
,
0010
0001
0010
0000
,
0000
0010
0001
0010
,
0100
1000
0100
0000
,
0001
0100
1000
0100
,
0001
0100
0010
0000
,
1000
0000
0100
0000
,
0001
1000
0000
0001
,
0000
0001
0001
1000
,
0100
0010
0100
0000
,
0000
0010
0100
0001
,
0010
0100
1000
0000
,
0001
0010
0100
0000
,
1000
0000
0001
0000
,
1000
0000
0110
0000
,
2001
3000
0001
0000
,
1000
0100
0010
0001
,
0010
0100
1100
0000
,
0101
0100
0010
0100
,
1000
0100
0110
0000
,
0011
0010
0100
1000
,
0100
0010
0110
0000
,
1010
0000
0011
0000
,
0001
1000
0101
0000
,
0100
0010
0110
0010
,
1000
0100
0110
0000
,
0000
0010
0110
0010
,
1000
0100
0110
0000
,
0001
1000
1100
0000
,
0101
0000
1010
0000
,
0101
0000
0110
0000
,
1001
0110
1001
0000
,
1100
0010
0001
0010
,
0100
1000
0110
0000
,
1001
0001
1000
0100
,
0010
0001
0110
0000
,
0110
1000
0010
0001
,
0010
1000
0110
0000
,
0011
0000
1010
0000
,
1001
0110
1100
0000
,
1001
0001
0110
0011
,
0010
0010
1010
0022
,
0033
1000
1100
1100
,
0001
0001
1001
0000
,
0110
1001
0110
0000
,
1010
0000
0101
0000
,
1100
0000
0101
0000
,
1001
0000
0110
0010
,
0001
0010
0100
1000
,
0100
0010
0001
0000
,
0100
0001
0100
1000
,
0010
0001
0010
0000
,
0010
1000
0100
0001
,
0100
0010
1000
0100
,
0001
0100
1000
0010
,
0100
1000
0010
0000
,
0010
1000
0100
0010
,
1000
0100
0001
0000
,
0100
0010
0001
0010
,
1000
0100
0001
0010
,
1000
0100
0001
1000
,
0010
0001
2000
3000
,
0200
0300
0002
0000
,
0003
0000
1001
0000
,
0000
0000
0000
0000
,
0000
0000
0000
0000
,
0000
0000
0000
0000
,
1010
0101
0110
0000
0002
0003
0010
0100
,
0010
1000
0100
0001
0000
0000
0000
0000
,
0000
0000
0000
0000
0000
0020
0000
0000
,
0030
0000
0000
0000
,
0000
0000
0000
0000
2000
3000
0100
0010
,
0100
0001
0100
0010
1000
0000
0100
0000
,
0010
0000
0001
1000
0010
0000
1000
0100
,
0001
0100
1000
0100
0010
0010
0001
0000
,
1000
0100
0001
0000
1000
0000
0001
0001
,
1000
0001
0010
1000
0010
0100
0010
1000
,
0100
0001
0100
1000
0001
0100
0010
0100
,
0001
0100
1000
0100
0001
0010
1000
0010
,
0001
0100
1000
0100
0001
0010
1000
0100
,
0001
0010
1000
0010
0001
0100
1000
0100
,
0001
0010
1000
0100
0001
0010
0001
0100
,
0001
0010
0001
1000
0001
0010
0001
1000
,
0100
0010
0100
0010
0100
0010
0100
0010
0200
0000
0000
0000
0300
0000
0000
0000
,
0100
0010
0110
0110
,
1000
0001
1001
0000
,
0001
1000
0101
0101
,
0010
1000
1010
0000
,
0001
1000
1001
0100
,
0110
0000
1001
0000
,
0101
0000
1010
0000
,
0101
0000
0000
0000
1000
0000
0001
1000
,
0000
0001
1000
0100
,
0010
0001
1100
0000
,
0001
1000
0100
0010
,
0001
1000
0100
0000
,
0001
1000
0100
0010
,
0001
1000
0100
1000
,
0001
1000
0100
0000
,
1002
0003
0100
0000
,
0010
1000
0100
0010
,
0001
0010
0100
0000
,
0001
1000
0100
0010
,
0001
0010
0100
0001
,
0010
1000
0100
0001
,
1000
0000
0001
0010
,
0100
0010
0100
0000
,
0001
0100
0010
0000
,
1000
0010
0001
0001
,
1000
0100
0001
0000
,
0000
1000
0100
0100
,
0001
0010
0010
0000
,
1000
0100
0010
0000
,
0010
0000
1100
0000
,
0011
0000
1100
0000
,
1001
0000
1001
0000
,
0100
0010
0100
0001
,
1000
0100
0001
0000
,
1000
0010
0001
0001
,
1000
0100
0010
0000
,
0001
1000
0100
0010
,
0001
0000
1001
0000
,
1100
0000
0101
0000
,
0010
0100
0010
0000
,
0010
0001
0010
0010
,
1000
0100
0010
0000
,
0000
1000
0100
0100
,
0010
0001
0010
0000
,
1000
0001
1000
0000
,
0001
0000
0011
0000
,
1010
0000
0101
0000
,
0220
0330
1001
0000;

//---------------dance-single - Untitled----------------
#NOTES:
     dance-single:
     Untitled:
     Hard:
     10:
     0.645,0.812,0.532,0.203,0.019,690.000,97.000,37.000,0.000,0.000:

1000
0100
1000
0100
1000
0100
1000
0100
,
1000
0001
1000
0001
1000
0001
1000
0001
,
1000
0010
1000
0010
0001
0010
0001
0010
,
1000
0001
1000
0001
1000
0001
0010
1000
,
0100
0010
0000
0001
0000
0001
1000
0100
,
0010
0100
0000
0100
0010
0002
0000
0003
,
1000
0010
0000
1000
0000
0100
0000
0010
,
0001
1000
0100
0010
0002
0000
0003
0000
,
0001
0100
0001
0100
0001
0100
0001
0100
,
0001
1000
0001
1000
0001
1000
0001
1000
,
0001
0010
0001
0010
1000
0010
1000
0010
,
0001
1000
0001
1000
0001
1000
0100
0001
,
0010
1000
0000
1000
0000
1000
0010
0100
,
0010
0001
0000
0001
0010
0200
0000
0300
,
0010
0100
0001
1000
0100
0010
0100
0001
,
1000
0100
0001
0100
2000
3000
0000
0000
,
1001
0000
0101
0000
,
1001
1001
1010
0110
,
0011
1010
0022
0033
,
0000
0101
0110
1010
,
0101
0110
2020
3030
,
1001
0110
0011
0011
,
2010
3000
1002
0003
,
0100
0000
2100
3000
,
0010
0010
0000
0101
,
0000
0000
0001
0000
1100
0000
0000
0100
,
1000
1000
2002
3003
,
0000
0001
1000
0100
,
0010
0001
0220
0330
,
0001
0010
0200
0300
,
2100
3000
1020
0030
,
0210
0300
2002
3003
,
0110
0000
0010
0100
,
1000
0001
1000
0100
,
1000
0100
0010
0001
,
0010
0001
1000
0100
,
0010
0001
1000
0001
,
1000
0010
0001
0010
,
1000
0001
1000
0100
,
0001
0100
1000
0100
,
0101
0101
0100
1000
,
0010
1000
0100
1000
,
0001
0010
1000
0100
,
0010
1000
0100
0010
,
0001
0010
1000
0100
,
0001
0100
1000
0001
,
0200
0300
1000
0010
,
0001
0010
1000
0000
,
0220
0330
0110
0001
,
0001
1000
0100
0010
,
0001
0010
1000
0100
,
0001
1000
0100
0010
,
0001
0010
0100
1000
,
0001
1000
0100
1000
,
0100
1000
0001
0001
,
0010
0010
0100
0000
,
0100
1000
0001
0100
,
0010
1000
0001
0001
,
1000
0100
0010
0001
,
1000
0100
1000
0010
,
0001
0010
1000
0001
,
0010
0100
1000
0001
,
0010
0000
1000
0100
,
0001
0100
1000
0000
,
0001
1000
0010
0100
,
0010
0001
0010
0100
,
0010
1000
0010
0100
,
0001
1000
0100
0001
,
0100
1000
0001
0010
,
1000
0010
0001
1000
,
0100
0001
0100
0010
,
0100
1000
0100
0010
,
0001
0100
0110
0000
,
0001
1000
0100
0100
,
0001
0010
0100
1000
,
0000
0001
1000
0100
,
0010
0001
0010
0000
,
1000
0001
1001
0000
,
0001
1000
1100
0010
,
0110
0010
0011
0100
,
1001
0000
1100
0110
,
0001
0010
0100
1000
,
0100
0010
0011
0011
,
1000
0100
0001
0100
,
1000
0010
0011
1100
,
0001
0010
1000
1000
,
0010
0001
0010
0100
,
0010
0100
0110
0010
,
1001
0011
1100
0001
,
1000
0100
0010
0001
,
1001
0100
0011
0001
,
0110
0001
1000
0100
,
0110
0001
1100
0001
,
0110
0010
1100
0001
,
0101
0100
0110
1010
,
0010
1100
0101
0000
,
2002
3003
0200
0000
,
0020
0000
0000
0000
,
0330
0000
0000
0000
,
0000
0000
0000
0000
,
1000
0000
0100
0000
0010
0000
1000
0000
0001
0000
0000
0000
1000
0000
0100
0010
,
0100
0001
0100
0020
1000
0030
0001
0000
,
2010
0010
3000
0010
0220
0000
0330
0000
,
0000
0000
0000
0000
,
0000
0000
0110
0000
0001
0000
0100
0010
,
0001
0010
0100
0001
1000
0000
0001
0000
,
0100
0000
0100
0010
0100
0000
1000
0000
0001
0000
0000
0000
0100
0000
1000
0000
,
0001
0010
0100
1000
0001
1000
0100
0000
,
1100
0000
0010
0100
0010
0000
0000
0000
0001
0000
0000
0000
0001
0000
1000
0000
,
0100
0010
0010
0001
0010
0000
1000
0010
,
0001
0010
1000
0100
0001
0000
1000
0100
,
0001
0100
0100
1000
0010
0000
0010
0100
,
0010
0100
0001
1000
0100
0000
0001
1000
,
0100
0000
0001
1000
0010
0000
1000
0001
,
0010
0000
1000
0001
0010
0000
0010
0000
,
0010
0000
0010
0000
0010
0010
0010
0010
,
0010
0100
0010
0100
1000
0100
0010
0001
0020
0000
0000
0000
0030
0000
0000
0000
,
0010
0010
0100
0100
,
0001
0001
1000
0001
,
0010
0100
1000
0001
,
0010
1000
0010
0100
,
0010
0001
0010
0100
,
0001
1000
0100
0001
,
0010
1000
0100
0001
,
0100
0000
0010
0000
1000
0000
0001
1000
,
0000
0100
0010
0001
,
0010
0100
0110
0001
,
1000
0100
0010
0010
,
0001
0001
1000
0010
,
1000
0100
1000
0001
,
0100
0000
0011
0010
,
0110
0100
1100
0000
,
2002
3003
0110
0010
,
0001
0010
0110
0110
,
1000
0100
0011
0001
,
0010
1000
0110
0011
,
0100
1000
1001
0100
,
0110
0011
1000
0001
,
1100
0100
0110
0010
,
1100
0001
0110
0001
,
1100
0110
1001
0010
,
0100
1000
0100
0010
,
0001
0010
0100
0001
,
1000
0100
0010
0001
,
0010
0100
1000
0001
,
0100
0010
1000
0100
,
0010
0001
1000
0100
,
0100
0010
0010
0001
,
0110
0000
0001
1000
,
0100
0010
0001
1000
,
0010
0100
0001
1000
,
0001
1000
0001
0010
,
0100
0010
1000
0001
,
0010
0100
1000
0100
,
0010
0001
1000
1000
,
0001
1000
0001
1000
,
0010
0001
0010
0100
,
1000
0100
0001
0100
,
0010
1000
0100
0010
,
0001
0010
0001
1000
,
0100
0010
1001
0100
,
0010
0100
1001
0100
,
0010
0010
0011
0100
,
0101
0100
1100
0001
,
2002
3003
0110
0000;

//---------------dance-double - Untitled----------------
#NOTES:
     dance-double:
     Untitled:
     Hard:
     8:
     0.563,0.767,0.576,0.186,0.019,580.000,105.000,34.000,0.000,1.000:






10000000
00000000
00010000
00100000
00100000
00000000
00001000
01000000
,
00100000
00000000
00001000
01000000
00010000
00000000
00001000
01000000
,
00100000
00000000
00001000
01000000
00010000
00000000
00001000
00000000
,
01000000
00101000
01200000
00310000
,
00000000
00001000
00000000
00100000
00010000
00000000
00000100
00010000
,
00100000
00000000
00000000
00010000
00001000
00000000
00000100
00001000
,
00100000
00000000
00010000
00001000
00000100
00000000
00100000
00000000
,
00000100
00210000
00310000
00000000
,
00100100
00000000
00000010
00010000
00000010
00000000
00010000
00000010
,
00001000
00000000
00000010
00001000
00000100
00000000
00000100
00010000
,
00000100
00000000
00010000
00000100
00010000
00000000
00000100
00000000
,
00001100
00000110
00010100
00000010
,
00000000
00001001
00000000
00000010
00001010
00000000
00000010
00000100
,
00000110
00000000
00000000
00000100
00000110
00000000
00000001
00001000
,
00000101
00000000
00001000
00000001
00000101
00000000
00001001
00000000
,
00001100
00000000
00000101
00000000
00000220
00000000
00000000
00000330
,
00000000
00000000
00010010
00000000
,
00001000
00010000
00001000
00000100
,
00000010
00010000
00002000
00003000
,
00000000
00000010
00000100
00001000
,
00000100
00000100
00200000
00300000
,
00100000
00010000
00001000
00001000
,
00000100
00000000
00100000
00000000
,
00110000
00000000
00010100
00000000
,
00010000
00020000
00030000
01000000
,
00000000
00000000
00001000
00000000
01000000
00000000
00000000
00100000
,
01000000
00001000
02002000
03003000
,
00000000
00100000
00001000
01000000
,
00100000
00100000
00020000
00030000
,
10000000
01000000
00100000
00000000
,
00020000
00030000
20000000
30000000
,
02200000
03300000
20020000
30030000
,
21000000
32000000
00000000
00000000
00000000
00000000
00000000
00000000
00000000
00000000
00000000
00000000
03000000
00000000
00000000
00000000
00000000
00000000
00000000
00000000
00000000
00000000
00000000
00000000
00001000
00000000
00000000
00000000
00000000
00000000
00000000
00000000
00000000
00000000
00000000
00000000
00000000
00000000
00000000
00000000
00000000
00000000
00000000
00000000
00000000
00000000
00000000
00000000
,
01000000
00100000
01000000
00100000
,
00010000
00001000
00010000
00000000
,
00000000
00010000
00001000
00010000
,
00100000
00010000
00100000
00000000
00010000
00000000
00000000
00000000
,
00000100
00010000
00100000
00010000
,
00000100
00010000
00001000
00000000
,
00100000
00000000
00010000
00000000
,
00000100
00010000
00000000
00000010
,
00000000
00000010
00000010
00010000
,
00001000
00000100
00001000
00000000
,
00000000
00000100
00001000
00000010
,
00000100
00000100
00001000
00000000
,
00000001
00000010
00000100
00000000
,
00001000
00000000
00000001
00000000
,
00001000
00000000
00000110
00000000
,
00022000
00033000
00000010
00000000
,
00010000
00001000
00000100
00000010
,
00000100
00001000
00011000
00000000
,
00001010
00001000
00000100
00001000
,
00010000
00010000
00011000
00000000
,
00001100
00001000
00010000
00100000
,
00010000
00001000
00011000
00000000
,
00101000
00000000
00001100
00000000
,
00000100
01000000
00101000
00000000
,
00100000
00010000
00110000
00010000
,
01000000
00100000
00110000
00000000
,
00000000
00010000
00110000
00010000
,
01000000
01000000
01100000
00000000
,
00010000
10000000
11000000
00000000
,
01010000
00000000
10100000
00000000
,
01010000
00000000
01100000
00000000
,
10010000
00110000
01001000
00000000
,
01100000
00010000
00001000
00010000
,
00100000
01000000
00110000
00000000
,
01001000
00001000
01000000
00100000
,
00010000
00000100
00011000
00000000
,
00011000
00100000
00001000
00000100
,
00001000
00100000
00011000
00000000
,
00001100
00000000
00101000
00000000
,
00100100
00001100
00011000
00000000
,
00010010
00000010
00001100
00000110
,
00000100
00000100
00010100
00000220
,
00000330
00010000
00011000
00011000
,
00000010
00000001
00001001
00000000
,
00000110
00001001
00000110
00000000
,
00001010
00000000
00000101
00000000
,
00001100
00000000
00000101
00000000
,
00001001
00000000
00001100
00000100
,
00000010
00000100
00001000
00010000
,
00001000
00000100
00000010
00000000
,
00001000
00000010
00001000
00010000
,
00000100
00000100
00001000
00000000
,
00001000
00100000
00010000
00000100
,
00010000
00001000
00100000
00010000
,
00000100
00010000
00100000
00001000
,
00010000
01000000
00010000
00000000
,
00010000
01000000
00100000
00010000
,
01000000
00100000
00001000
00000000
,
00100000
00010000
00001000
00010000
,
01000000
01000000
00010000
00100000
,
10000000
01000000
00010000
10000000
,
00100000
00010000
20000000
30000000
,
02000000
03000000
00020000
00000000
,
00030000
00000000
01001000
00000000
,
00000000
00000000
00000000
00000000
,
00000000
00000000
00000000
00000000
,
00000000
00000000
00000000
00000000
,
01010000
00010100
00011000
00000000
00000200
00000300
00001000
00010000
,
00001000
00100000
00010000
00000100
00000000
00000000
00000000
00000000
,
00000000
00000000
00000000
00000000
00000000
00002000
00000000
00000000
,
00003000
00000000
00000000
00000000
,
00000000
00000000
00000000
00000000
00020000
00030000
00001000
00000100
,
00001000
00000010
00001000
00000100
00010000
00000000
00001000
00000000
,
00000100
00000000
00000010
00010000
00000100
00000000
00010000
00001000
,
00000010
00001000
00010000
00001000
00000100
00000100
00000010
00000000
,
00010000
00000100
00000001
00000000
00001000
00000000
00000001
00000001
,
00001000
00000001
00000010
00001000
00000010
00000100
00000010
00001000
,
00000100
00000001
00000100
00001000
00000001
00000100
00000010
00000100
,
00000001
00000100
00001000
00000100
00000001
00000010
00001000
00000010
,
00000001
00001000
00010000
00001000
00000010
00000100
00010000
00001000
,
00000010
00000100
00010000
00000100
00000010
00001000
00010000
00001000
,
00000010
00000100
00010000
00001000
00000010
00000100
00000010
00001000
,
00000010
00000100
00000010
00010000
00000010
00000100
00000010
00010000
,
00001000
00001000
00010000
00001000
00010000
00001000
00010000
00001000
00020000
00000000
00000000
00000000
00030000
00000000
00000000
00000000
,
00010000
00001000
00011000
00011000
,
00100000
00000100
00100100
00000000
,
00000100
00100000
00010100
00010100
,
00001000
01000000
01010000
00000000
,
00001000
01000000
01001000
00100000
,
00110000
00000000
01001000
00000000
,
00101000
00000000
01010000
00000000
,
00101000
00000000
00000000
00000000
10000000
00000000
00010000
10000000
,
00000000
00010000
10000000
01000000
,
00100000
00010000
11000000
00000000
,
00010000
10000000
01000000
00100000
,
00010000
01000000
00100000
00000000
,
00001000
01000000
00100000
00010000
,
00001000
01000000
00100000
01000000
,
00001000
01000000
00100000
00000000
,
01002000
00003200
00000000
00000000
00000000
00000000
00000000
00000000
00000000
00000000
00000000
00000000
00000300
00000000
00000000
00000000
00000000
00000000
00000000
00000000
00000000
00000000
00000000
00000000
00010000
00000000
00000000
00000000
00000000
00000000
00000000
00000000
00000000
00000000
00000000
00000000
00000000
00000000
00000000
00000000
00000000
00000000
00000000
00000000
00000000
00000000
00000000
00000000
,
00001000
00100000
00010000
00001000
,
00000100
00001000
00010000
00000000
,
00000100
00100000
00010000
00001000
,
00000100
00000100
00001000
00000010
,
00000100
00010000
00001000
00000010
,
00010000
00000000
00000010
00000100
,
00001000
00000100
00001000
00000000
,
00000010
00000100
00000010
00000000
,
00001000
00000010
00000001
00000001
,
00001000
00000100
00000001
00000000
,
00000000
00001000
00000100
00000100
,
00000001
00000100
00000100
00000000
,
00010000
00001000
00000100
00000000
,
00000100
00000000
00011000
00000000
,
00000110
00000000
00011000
00000000
,
00010010
00000000
00100100
00000000
,
00010000
00001000
00010000
00000100
,
00100000
00010000
00000100
00000000
,
00100000
00001000
00000100
00000100
,
00100000
00100000
00010000
00000000
,
00001000
01000000
00100000
00010000
,
00001000
00000000
01001000
00000000
,
01100000
00000000
00101000
00000000
,
00010000
01000000
00100000
00000000
,
00100000
00010000
00100000
00100000
,
10000000
01000000
00100000
00000000
,
00000000
10000000
01000000
01000000
,
00100000
00001000
00010000
00000000
,
01000000
00001000
01000000
00000000
,
00001000
00000000
00011000
00000000
,
01010000
00000000
00101000
00000000
,
00220000
00302000
00000000
00000000
00000000
00000000
00000000
00000000
00000000
00000000
00000000
00000000
00033000
00000000
00000000
00000000
00000000
00000000
00000000
00000000
00000000
00000000
00000000
00000000
00100100
00000000
00000000
00000000
00000000
00000000
00000000
00000000
00000000
00000000
00000000
00000000
00000000
00000000
00000000
00000000
00000000
00000000
00000000
00000000
00000000
00000000
00000000
00000000;

//---------------dance-couple - Untitled----------------
#NOTES:
     dance-couple:
     Untitled:
     Hard:
     8:
     0.563,0.767,0.576,0.186,0.022,580.000,105.000,34.000,0.000,1.000:






10000000
00000000
00010000
00100000
00100000
00000000
00001000
01000000
,
00100000
00000000
00001000
01000000
00010000
00000000
00001000
01000000
,
00100000
00000000
00001000
01000000
00010000
00000000
00001000
00000000
,
01000000
00101000
01200000
00310000
,
00000000
00001000
00000000
00100000
00010000
00000000
00000100
00010000
,
00100000
00000000
00000000
00010000
00001000
00000000
00000100
00001000
,
00100000
00000000
00010000
00001000
00000100
00000000
00100000
00000000
,
00000100
00210000
00310000
00000000
,
00100100
00000000
00000010
00010000
00000010
00000000
00010000
00000010
,
00001000
00000000
00000010
00001000
00000100
00000000
00000100
00010000
,
00000100
00000000
00010000
00000100
00010000
00000000
00000100
00000000
,
00001100
00000110
00010100
00000010
,
00000000
00001001
00000000
00000010
00001010
00000000
00000010
00000100
,
00000110
00000000
00000000
00000100
00000110
00000000
00000001
00001000
,
00000101
00000000
00001000
00000001
00000101
00000000
00001001
00000000
,
00001100
00000000
00000101
00000000
00000220
00000000
00000000
00000330
,
00000000
00000000
00010010
00000000
,
00001000
00010000
00001000
00000100
,
00000010
00010000
00002000
00003000
,
00000000
00000010
00000100
00001000
,
00000100
00000100
00200000
00300000
,
00100000
00010000
00001000
00001000
,
00000100
00000000
00100000
00000000
,
00110000
00000000
00010100
00000000
,
00010000
00020000
00030000
01000000
,
00000000
00000000
00001000
00000000
01000000
00000000
00000000
00100000
,
01000000
00001000
02002000
03003000
,
00000000
00100000
00001000
01000000
,
00100000
00100000
00020000
00030000
,
10000000
01000000
00100000
00000000
,
00020000
00030000
20000000
30000000
,
02200000
03300000
20020000
30030000
,
21000000
32000000
00000000
00000000
00000000
00000000
00000000
00000000
00000000
00000000
00000000
00000000
03000000
00000000
00000000
00000000
00000000
00000000
00000000
00000000
00000000
00000000
00000000
00000000
00001000
00000000
00000000
00000000
00000000
00000000
00000000
00000000
00000000
00000000
00000000
00000000
00000000
00000000
00000000
00000000
00000000
00000000
00000000
00000000
00000000
00000000
00000000
00000000
,
01000000
00100000
01000000
00100000
,
00010000
00001000
00010000
00000000
,
00000000
00010000
00001000
00010000
,
00100000
00100000
00010000
00000000
,
00000100
00010000
00100000
00010000
,
00000100
00010000
00001000
00000000
,
00100000
00000000
00010000
00000000
,
00000100
00010000
00000000
00000010
,
00000000
00000010
00000010
00010000
,
00001000
00000100
00001000
00000000
,
00000000
00000100
00001000
00000010
,
00000100
00000100
00001000
00000000
,
00000001
00000010
00000100
00000000
,
00001000
00000000
00000001
00000000
,
00001000
00000000
00000110
00000000
,
00002001
00023000
00000000
00000000
00000000
00000000
00000000
00000000
00000000
00000000
00000000
00000000
00030000
00000000
00000000
00000000
00000000
00000000
00000000
00000000
00000000
00000000
00000000
00000000
00000010
00000000
00000000
00000000
00000000
00000000
00000000
00000000
00000000
00000000
00000000
00000000
00000000
00000000
00000000
00000000
00000000
00000000
00000000
00000000
00000000
00000000
00000000
00000000
,
00010000
00001000
00000100
00000010
,
00000100
00001000
00011000
00000000
,
00001010
00001000
00000100
00001000
,
00010000
00010000
00011000
00000000
,
00001100
00001000
00010000
00100000
,
00010000
00001000
00011000
00000000
,
00101000
00000000
00001100
00000000
,
00000100
01000000
00101000
00000000
,
00100000
00010000
00110000
00010000
,
01000000
00100000
00110000
00000000
,
00000000
00010000
00110000
00010000
,
01000000
01000000
01100000
00000000
,
00010000
10000000
11000000
00000000
,
01010000
00000000
10100000
00000000
,
01010000
00000000
01100000
00000000
,
10010000
00110000
01001000
00000000
,
01100000
00010000
00001000
00010000
,
00100000
01000000
00110000
00000000
,
01001000
00001000
01000000
00100000
,
00010000
00000100
00011000
00000000
,
00011000
00100000
00001000
00000100
,
00001000
00100000
00011000
00000000
,
00001100
00000000
00101000
00000000
,
00100100
00001100
00011000
00000000
,
00010010
00000010
00001100
00000110
,
00000100
00000100
00010100
00000220
,
00000330
00010000
00011000
00011000
,
00000010
00000001
00001001
00000000
,
00000110
00001001
00000110
00000000
,
00001010
00000000
00000101
00000000
,
00001100
00000000
00000101
00000000
,
00001001
00000000
00001100
00000100
,
00000010
00000100
00001000
00010000
,
00001000
00000100
00000010
00000000
,
00001000
00000010
00001000
00010000
,
00000100
00000100
00001000
00000000
,
00001000
00100000
00010000
00000100
,
00010000
00001000
00100000
00010000
,
00000100
00010000
00100000
00001000
,
00010000
01000000
00010000
00000000
,
00010000
01000000
00100000
00010000
,
01000000
00100000
00001000
00000000
,
00100000
00010000
00001000
00010000
,
01000000
01000000
00010000
00100000
,
10000000
01000000
00010000
10000000
,
00100000
00010000
20000000
30000000
,
02000000
03000000
00020000
00000000
,
00030000
00000000
01001000
00000000
,
00000000
00000000
00000000
00000000
,
00000000
00000000
00000000
00000000
,
00000000
00000000
00000000
00000000
,
01010000
00010100
00011000
00000000
00000200
00000300
00001000
00010000
,
00001000
00100000
00010000
00000100
00000000
00000000
00000000
00000000
,
00000000
00000000
00000000
00000000
00000000
00002000
00000000
00000000
,
00003000
00000000
00000000
00000000
,
00000000
00000000
00000000
00000000
00020000
00030000
00001000
00000100
,
00001000
00000010
00001000
00000100
00010000
00000000
00001000
00000000
,
00000100
00000000
00000010
00010000
00000100
00000000
00010000
00001000
,
00000010
00001000
00010000
00001000
00000100
00000100
00000010
00000000
,
00010000
00000100
00000001
00000000
00001000
00000000
00000001
00000001
,
00001000
00000001
00000010
00001000
00000010
00000100
00000010
00001000
,
00000100
00000001
00000100
00001000
00000001
00000100
00000010
00000100
,
00000001
00000100
00001000
00000100
00000001
00000010
00001000
00000010
,
00000001
00001000
00010000
00001000
00000010
00000100
00010000
00001000
,
00000010
00000100
00010000
00000100
00000010
00001000
00010000
00001000
,
00000010
00000100
00010000
00001000
00000010
00000100
00000010
00001000
,
00000010
00000100
00000010
00010000
00000010
00000100
00000010
00010000
,
00001000
00001000
00010000
00001000
00010000
00001000
00010000
00001000
00020000
00000000
00000000
00000000
00030000
00000000
00000000
00000000
,
00010000
00001000
00011000
00011000
,
00100000
00000100
00100100
00000000
,
00000100
00100000
00010100
00010100
,
00001000
01000000
01010000
00000000
,
00001000
01000000
01001000
00100000
,
00110000
00000000
01001000
00000000
,
00101000
00000000
01010000
00000000
,
00101000
00000000
00000000
00000000
10000000
00000000
00010000
10000000
,
00000000
00010000
10000000
01000000
,
00100000
00010000
11000000
00000000
,
00010000
10000000
01000000
00100000
,
00010000
01000000
00100000
00000000
,
00001000
01000000
00100000
00010000
,
00001000
01000000
00100000
01000000
,
00001000
01000000
00100000
00000000
,
01002000
00003200
00000000
00000000
00000000
00000000
00000000
00000000
00000000
00000000
00000000
00000000
00000300
00000000
00000000
00000000
00000000
00000000
00000000
00000000
00000000
00000000
00000000
00000000
00010000
00000000
00000000
00000000
00000000
00000000
00000000
00000000
00000000
00000000
00000000
00000000
00000000
00000000
00000000
00000000
00000000
00000000
00000000
00000000
00000000
00000000
00000000
00000000
,
00001000
00100000
00010000
00001000
,
00000100
00001000
00010000
00000000
,
00000100
00100000
00010000
00001000
,
00000100
00000100
00001000
00000010
,
00000100
00010000
00001000
00000010
,
00010000
00000000
00000010
00000100
,
00001000
00000100
00001000
00000000
,
00000010
00000100
00000010
00000000
,
00001000
00000010
00000001
00000001
,
00001000
00000100
00000001
00000000
,
00000000
00001000
00000100
00000100
,
00000001
00000100
00000100
00000000
,
00010000
00001000
00000100
00000000
,
00000100
00000000
00011000
00000000
,
00000110
00000000
00011000
00000000
,
00010010
00000000
00100100
00000000
,
00010000
00001000
00010000
00000100
,
00100000
00010000
00000100
00000000
,
00100000
00001000
00000100
00000100
,
00100000
00100000
00010000
00000000
,
00001000
01000000
00100000
00010000
,
00001000
00000000
01001000
00000000
,
01100000
00000000
00101000
00000000
,
00010000
01000000
00100000
00000000
,
00100000
00010000
00100000
00100000
,
10000000
01000000
00100000
00000000
,
00000000
10000000
01000000
01000000
,
00100000
00001000
00010000
00000000
,
01000000
00001000
01000000
00000000
,
00001000
00000000
00011000
00000000
,
01010000
00000000
00101000
00000000
,
00220000
00302000
00000000
00000000
00000000
00000000
00000000
00000000
00000000
00000000
00000000
00000000
00033000
00000000
00000000
00000000
00000000
00000000
00000000
00000000
00000000
00000000
00000000
00000000
00100100
00000000
00000000
00000000
00000000
00000000
00000000
00000000
00000000
00000000
00000000
00000000
00000000
00000000
00000000
00000000
00000000
00000000
00000000
00000000
00000000
00000000
00000000
00000000;

//---------------dance-solo - Untitled----------------
#NOTES:
     dance-solo:
     Untitled:
     Hard:
     8:
     0.563,0.767,0.576,0.186,0.022,580.000,105.000,34.000,0.000,1.000:






100000
000000
000100
001000
001000
000000
000010
010000
,
001000
000000
000010
010000
000100
000000
000010
010000
,
001000
000000
000010
010000
000100
000000
000010
000000
,
010000
001010
012000
003100
,
000000
000010
000000
001000
000100
000000
000001
000100
,
001000
000000
000000
000100
000010
000000
000001
000010
,
001000
000000
000100
000010
000001
000000
001000
000000
,
000001
002100
003100
000000
,
001001
000000
000010
010000
000010
000000
010000
000010
,
001000
000000
000010
001000
000100
000000
000100
010000
,
000100
000000
010000
000100
010000
000000
000100
000000
,
001100
000110
010100
000010
,
000000
100100
000000
001000
101000
000000
001000
010000
,
011000
000000
000000
010000
011000
000000
000100
100000
,
010100
000000
100000
000100
010100
000000
100100
000000
,
110000
000000
010100
000000
022000
000000
000000
033000
,
000000
000000
010010
000000
,
001000
010000
001000
000100
,
000010
010000
002000
003000
,
000000
000010
000100
001000
,
000100
000001
002000
003000
,
001000
000100
000010
000010
,
000001
000000
001000
000000
,
001100
000000
000101
000000
,
000100
000200
000300
010000
,
000000
000000
000010
000000
010000
000000
000000
001000
,
010000
000010
020020
030030
,
000000
001000
000010
010000
,
001000
001000
000200
000300
,
100000
010000
001000
000000
,
000200
000300
200000
300000
,
022000
033000
200200
300300
,
210000
320000
000000
000000
000000
000000
000000
000000
000000
000000
000000
000000
030000
000000
000000
000000
000000
000000
000000
000000
000000
000000
000000
000000
000010
000000
000000
000000
000000
000000
000000
000000
000000
000000
000000
000000
000000
000000
000000
000000
000000
000000
000000
000000
000000
000000
000000
000000
,
010000
001000
010000
001000
,
000100
000010
000100
000000
,
000000
000100
000010
000100
,
001000
001000
000100
000000
,
000001
000100
001000
000100
,
000001
000100
000010
000000
,
001000
000000
000100
000000
,
000001
010000
000000
000010
,
000000
000010
000010
010000
,
001000
000100
001000
000000
,
000000
000100
001000
000010
,
000100
010000
100000
000000
,
000100
001000
010000
000000
,
100000
000000
000100
000000
,
100000
000000
011000
000000
,
200100
320000
000000
000000
000000
000000
000000
000000
000000
000000
000000
000000
030000
000000
000000
000000
000000
000000
000000
000000
000000
000000
000000
000000
000010
000000
000000
000000
000000
000000
000000
000000
000000
000000
000000
000000
000000
000000
000000
000000
000000
000000
000000
000000
000000
000000
000000
000000
,
010000
001000
000100
000010
,
000100
001000
011000
000000
,
001010
001000
000100
001000
,
010000
000100
000110
000000
,
000011
000010
000100
001000
,
000100
000010
000110
000000
,
001010
000000
000011
000000
,
000001
010000
001010
000000
,
001000
000100
001100
000100
,
010000
001000
001100
000000
,
000000
000100
001100
000100
,
010000
010000
011000
000000
,
000100
100000
110000
000000
,
010100
000000
101000
000000
,
010100
000000
011000
000000
,
100100
001100
010010
000000
,
011000
000100
000010
000100
,
001000
010000
001100
000000
,
010010
000010
010000
001000
,
000100
000001
000110
000000
,
000110
001000
000010
000001
,
000010
001000
000110
000000
,
000011
000000
001010
000000
,
001001
001100
011000
000000
,
010010
000010
001100
000110
,
000100
000100
010100
000220
,
000330
010000
011000
011000
,
000010
000100
100100
000000
,
011000
100100
011000
000000
,
101000
000000
010100
000000
,
110000
000000
010100
000000
,
100100
000000
001100
000100
,
000010
000100
001000
010000
,
001000
000100
000010
000000
,
001000
000010
001000
010000
,
000100
000001
000010
000000
,
000010
001000
000100
000001
,
000100
000010
001000
000100
,
000001
000100
001000
000010
,
000100
010000
000100
000000
,
000100
010000
001000
000100
,
010000
001000
000010
000000
,
001000
000100
000010
000100
,
010000
010000
000100
001000
,
100000
010000
000100
100000
,
001000
000100
200000
300000
,
020000
030000
000200
000000
,
000300
000000
010010
000000
,
000000
000000
000000
000000
,
000000
000000
000000
000000
,
000000
000000
000000
000000
,
010100
000101
000110
000000
000002
000003
000010
000100
,
000010
001000
000100
000001
000000
000000
000000
000000
,
000000
000000
000000
000000
000000
000020
000000
000000
,
000030
000000
000000
000000
,
000000
000000
000000
000000
020000
030000
001000
000100
,
001000
000010
001000
000100
010000
000000
001000
000000
,
000100
000000
000010
010000
000100
000000
010000
001000
,
000010
001000
010000
001000
000100
000100
000010
000000
,
010000
010000
000100
000000
100000
000000
000100
000100
,
100000
000100
001000
100000
001000
010000
001000
100000
,
010000
000100
010000
100000
000100
010000
001000
010000
,
000100
010000
100000
010000
000100
001000
100000
001000
,
000100
001000
010000
001000
000010
000100
010000
001000
,
000010
000100
010000
000100
000010
001000
010000
001000
,
000010
000100
010000
001000
000010
000100
000010
001000
,
000010
000100
000010
010000
000010
000100
000010
010000
,
001000
000010
000100
000010
000100
000010
000100
000010
000200
000000
000000
000000
000300
000000
000000
000000
,
000100
000010
000110
000110
,
001000
000001
001001
000000
,
000001
001000
000101
000101
,
000010
010000
010100
000000
,
000010
010000
010010
001000
,
001100
000000
010010
000000
,
001010
000000
010100
000000
,
001010
000000
000000
000000
100000
000000
000100
100000
,
000000
000100
100000
010000
,
001000
000100
110000
000000
,
000100
100000
010000
001000
,
000100
010000
001000
000000
,
000010
010000
001000
000100
,
000010
010000
001000
010000
,
000010
010000
001000
000000
,
010020
000032
000000
000000
000000
000000
000000
000000
000000
000000
000000
000000
000003
000000
000000
000000
000000
000000
000000
000000
000000
000000
000000
000000
000100
000000
000000
000000
000000
000000
000000
000000
000000
000000
000000
000000
000000
000000
000000
000000
000000
000000
000000
000000
000000
000000
000000
000000
,
000010
001000
000100
000010
,
000001
000010
000100
000000
,
000001
001000
000100
000010
,
000001
000100
001000
000010
,
000100
010000
001000
000010
,
010000
000000
000010
000100
,
001000
000100
001000
000000
,
000010
010000
001000
000000
,
100000
001000
000100
000100
,
100000
010000
000100
000000
,
000000
100000
010000
010000
,
000100
000100
000100
000000
,
010000
001000
000100
000000
,
000100
000000
011000
000000
,
000110
000000
011000
000000
,
010010
000000
001001
000000
,
000100
000010
000100
000001
,
001000
000100
000001
000000
,
001000
000010
000001
000001
,
001000
001000
000100
000000
,
000010
010000
001000
000100
,
000010
000000
010010
000000
,
011000
000000
001010
000000
,
000100
010000
001000
000000
,
001000
000100
001000
001000
,
100000
010000
001000
000000
,
000000
100000
010000
010000
,
001000
000010
000100
000000
,
010000
000010
010000
000000
,
000010
000000
000110
000000
,
010100
000000
001010
000000
,
002200
003020
000000
000000
000000
000000
000000
000000
000000
000000
000000
000000
000330
000000
000000
000000
000000
000000
000000
000000
000000
000000
000000
000000
001001
000000
000000
000000
000000
000000
000000
000000
000000
000000
000000
000000
000000
000000
000000
000000
000000
000000
000000
000000
000000
000000
000000
000000;
